AvaxHome » Tutorials » Drumeo - Independence Made Easy
Posted By : mitsumi | Category: Tutorials
Drumeo - Independence Made  Easy

Drumeo - Independence Made Easy
WEBRip | English | MP4 + MP3 + PDF Guides | 1280 x 720 | AVC ~1767 kbps | 23.976 fps
AAC 256 Kbps 48.0 KHz | 2 channels | ~8.5 hours | 8.86 GB
Genre: eLearning Video / Drum-set, Percussion

Jared Falk is your personal drum coach for this 26-week course - helping you improve your drumming independence, guiding you toward becoming a more musical drummer, and giving you personal feedback to rapidly improve your skills.

"Drumeo - Independence Made Easy"

HI-SPEED DOWNLOAD
Free 300 GB with Full DSL-Broadband Speed!



General
Complete name : 04 - Week #1 - RLB.mp4
Format : MPEG-4
Format profile : Base Media / Version 2
Codec ID : mp42 (mp42/mp41/isom/avc1)
File size : 276 MiB
Duration : 19 min 0 s
Overall bit rate mode : Variable
Overall bit rate : 2 027 kb/s
Encoded date : UTC 2017-01-06 02:21:31
Tagged date : UTC 2017-01-06 02:21:31

Video
ID : 1
Format : AVC
Format/Info : Advanced Video Codec
Format profile : [email protected]
Format settings : CABAC / 5 Ref Frames
Format settings, CABAC : Yes
Format settings, RefFrames : 5 frames
Codec ID : avc1
Codec ID/Info : Advanced Video Coding
Duration : 19 min 0 s
Bit rate : 1 767 kb/s
Width : 1 280 pixels
Height : 720 pixels
Display aspect ratio : 16:9
Frame rate mode : Constant
Frame rate : 23.976 (24000/1001) FPS
Color space : YUV
Chroma subsampling : 4:2:0
Bit depth : 8 bits
Scan type : Progressive
Bits/(Pixel*Frame) : 0.080
Stream size : 240 MiB (87%)
Writing library : x264 core 148 r10 b97ae06
Encoding settings : cabac=1 / ref=5 / deblock=1:0:0 / analyse=0x3:0x113 / me=hex / subme=8 / psy=1 / psy_rd=1.00:0.00 / mixed_ref=1 / me_range=16 / chroma_me=1 / trellis=2 / 8x8dct=1 / cqm=0 / deadzone=21,11 / fast_pskip=1 / chroma_qp_offset=-2 / threads=22 / lookahead_threads=3 / sliced_threads=0 / nr=0 / decimate=1 / interlaced=0 / bluray_compat=0 / stitchable=1 / constrained_intra=0 / bframes=3 / b_pyramid=2 / b_adapt=1 / b_bias=0 / direct=3 / weightb=1 / open_gop=0 / weightp=2 / keyint=infinite / keyint_min=23 / scenecut=40 / intra_refresh=0 / rc_lookahead=50 / rc=crf / mbtree=1 / crf=20.0 / qcomp=0.60 / qpmin=5 / qpmax=69 / qpstep=4 / vbv_maxrate=2750 / vbv_bufsize=7500 / crf_max=0.0 / nal_hrd=none / filler=0 / ip_ratio=1.40 / aq=1:1.00
Encoded date : UTC 2017-01-06 02:21:31
Tagged date : UTC 2017-01-06 02:21:31
Color range : Limited
Color primaries : BT.709
Transfer characteristics : BT.709
Matrix coefficients : BT.709

Audio
ID : 2
Format : AAC
Format/Info : Advanced Audio Codec
Format profile : LC
Codec ID : mp4a-40-2
Duration : 19 min 0 s
Bit rate mode : Variable
Bit rate : 256 kb/s
Channel(s) : 2 channels
Channel positions : Front: L R
Sampling rate : 48.0 kHz
Frame rate : 46.875 FPS (1024 SPF)
Compression mode : Lossy
Stream size : 34.8 MiB (13%)
Encoded date : UTC 2017-01-06 02:21:31
Tagged date : UTC 2017-01-06 02:21:31

Screenshots


Drumeo - Independence Made  Easy

Drumeo - Independence Made  Easy

Drumeo - Independence Made  Easy


Download link:

rapidgator_net:
https://rapidgator.net/file/d85d0da5ec1f68f3042c1959e410ec23/bg2bt.Drumeo..Independence.Made.Easy.part01.rar.html
https://rapidgator.net/file/f9ccdc9e03a728d77b68437a3ba69789/bg2bt.Drumeo..Independence.Made.Easy.part02.rar.html
https://rapidgator.net/file/5374a5116d2a4daa97c7944d7caed332/bg2bt.Drumeo..Independence.Made.Easy.part03.rar.html
https://rapidgator.net/file/e4f8c718e4b336056653903af0576cce/bg2bt.Drumeo..Independence.Made.Easy.part04.rar.html
https://rapidgator.net/file/8aa84c8fed46e436e469b973d86d3df4/bg2bt.Drumeo..Independence.Made.Easy.part05.rar.html
https://rapidgator.net/file/e191f433d035142ac5421a80e0d52d54/bg2bt.Drumeo..Independence.Made.Easy.part06.rar.html
https://rapidgator.net/file/aa19387c571b8ba0164fee8f3b5cdb39/bg2bt.Drumeo..Independence.Made.Easy.part07.rar.html
https://rapidgator.net/file/7c7f8f4fe518c09f4ce7fe25eacc67b5/bg2bt.Drumeo..Independence.Made.Easy.part08.rar.html
https://rapidgator.net/file/089aad58f9ee3f97e318f6be72ce6adb/bg2bt.Drumeo..Independence.Made.Easy.part09.rar.html

nitroflare_com:
https://nitroflare.com/view/4265B6D89D017F6/bg2bt.Drumeo..Independence.Made.Easy.part01.rar
https://nitroflare.com/view/8D77A23F887C914/bg2bt.Drumeo..Independence.Made.Easy.part02.rar
https://nitroflare.com/view/DD4E12D38EF32EE/bg2bt.Drumeo..Independence.Made.Easy.part03.rar
https://nitroflare.com/view/2716E5551A220B8/bg2bt.Drumeo..Independence.Made.Easy.part04.rar
https://nitroflare.com/view/96488A2C420A1C7/bg2bt.Drumeo..Independence.Made.Easy.part05.rar
https://nitroflare.com/view/64D6FFB91773014/bg2bt.Drumeo..Independence.Made.Easy.part06.rar
https://nitroflare.com/view/DE61D4A921C7FF4/bg2bt.Drumeo..Independence.Made.Easy.part07.rar
https://nitroflare.com/view/C8CFDC45D146065/bg2bt.Drumeo..Independence.Made.Easy.part08.rar
https://nitroflare.com/view/4D67BC932ECD55D/bg2bt.Drumeo..Independence.Made.Easy.part09.rar

uploadgig_com:
http://uploadgig.com/file/download/9D399d867b912cdc/bg2bt.Drumeo..Independence.Made.Easy.part01.rar
http://uploadgig.com/file/download/fd19e58F7a5C0ede/bg2bt.Drumeo..Independence.Made.Easy.part02.rar
http://uploadgig.com/file/download/Bfedf46a5877F92B/bg2bt.Drumeo..Independence.Made.Easy.part03.rar
http://uploadgig.com/file/download/3cEf2b3f03dC3cF5/bg2bt.Drumeo..Independence.Made.Easy.part04.rar
http://uploadgig.com/file/download/234a5941C290075A/bg2bt.Drumeo..Independence.Made.Easy.part05.rar
http://uploadgig.com/file/download/e8e09d03A565d600/bg2bt.Drumeo..Independence.Made.Easy.part06.rar
http://uploadgig.com/file/download/efAb8df20c834B34/bg2bt.Drumeo..Independence.Made.Easy.part07.rar
http://uploadgig.com/file/download/a9a28158d8F489A5/bg2bt.Drumeo..Independence.Made.Easy.part08.rar
http://uploadgig.com/file/download/5a1Ca52d08240c19/bg2bt.Drumeo..Independence.Made.Easy.part09.rar


Links are Interchangeable - No Password - Single Extraction

P A S S W O R D    P R O T E C T E D ! 
PASSWORD WILL BE PUBLISHED HERE TOMORROW!
 PLEASE ADD PAGE TO YOUR FAVORITS

Free 300 GB with 10 GB High-Speed(No Password BACKUP)


Hide Your IP & Protect Your Privacy!
Get Your 15 Day Free Trial Now.

Tags: Drumeo, Independence, Made, Easy

Drumeo - Independence Made Easy Fast Download via Rapidshare Upload Filehosting Megaupload, Drumeo - Independence Made Easy Torrents and Emule Download or anything related.
Information
Comment on the news site is possible only within (days) days from the date of publication.
«    December 2019    »
MonTueWedThuFriSatSun
 1
2345678
9101112131415
16171819202122
23242526272829
3031 
December 2019 (282)
November 2019 (1763)
October 2019 (2451)
September 2019 (2408)
August 2019 (1987)
July 2019 (2526)
eXTReMe Tracker