AvaxHome » Tutorials » Trading Template Course
Posted By : oaxino | Category: Tutorials
Trading Template  Course

Trading Template Course
WEBRip | English | MP4 + MP3 + PDF Guides | 1280 x 720 | AVC ~985 Kbps | 15 fps
AAC | 103 Kbps | 44.1 KHz | 2 channels | ~10 hours | 9.67 GB
Genre: eLearning Video / Forex, Trading, Stock

Mike Aston and his wife Lynn have experienced the freedom of generating income from their home for the past 20 years. When Mike first started learning, it took him three years before he discovered when the optimum time to engage the market was.

"Trading Template Course"

HI-SPEED DOWNLOAD
Free 300 GB with Full DSL-Broadband Speed!



Trading Template  Course

Trading Template Course
WEBRip | English | MP4 + MP3 + PDF Guides | 1280 x 720 | AVC ~985 Kbps | 15 fps
AAC | 103 Kbps | 44.1 KHz | 2 channels | ~10 hours | 9.67 GB
Genre: eLearning Video / Forex, Trading, Stock

Mike Aston and his wife Lynn have experienced the freedom of generating income from their home for the past 20 years. When Mike first started learning, it took him three years before he discovered when the optimum time to engage the market was.

The Template has been the key to Mikes success for over 18 years now. Mr. Aston's two nieces showed interest in learning how he generated his income from home through trading. He agreed to teach the girls as long as they would record each lesson and put it into digital format. He has always said, "It is - what you don't know - that is robbing you." Therefore he has decided to open this course up so that others, like Tori and Payton, who are seeking to experience financial freedom can now have the knowledge to do so.
TIMING IS SO IMPORTANT
Always start with questions. - Who are you? and What kind of thinking do you have?
Are you one of the many people wishing they had better finances. But just stay there wishing... not really willing to do anything about improving. Please let today be a solid start in the correct direction. You have come here for a reason.
IF you are ready to take steps to financial independence and completely turn around your way of seeing the work world- then join us today in learning the trading template.

General
Complete name : 5 Bad Trade Example.mp4
Format : MPEG-4
Format profile : Base Media
Codec ID : isom (isom/iso2/avc1/mp41)
File size : 62.0 MiB
Duration : 7 min 56 s
Overall bit rate mode : Variable
Overall bit rate : 1 091 kb/s
Encoded date : UTC 2019-10-14 18:25:54
Tagged date : UTC 2019-10-14 18:25:54
Writing application : Lavf51.12.1

Video
ID : 1
Format : AVC
Format/Info : Advanced Video Codec
Format profile : [email protected]
Format settings : CABAC / 1 Ref Frames
Format settings, CABAC : Yes
Format settings, RefFrames : 1 frame
Format settings, GOP : M=1, N=12
Codec ID : avc1
Codec ID/Info : Advanced Video Coding
Duration : 7 min 56 s
Bit rate mode : Variable
Bit rate : 985 kb/s
Width : 1 280 pixels
Height : 720 pixels
Display aspect ratio : 16:9
Frame rate mode : Constant
Frame rate : 15.000 FPS
Color space : RGB
Chroma subsampling : 4:2:0
Bit depth : 8 bits
Scan type : Progressive
Bits/(Pixel*Frame) : 0.071
Stream size : 55.9 MiB (90%)
Language : English
Encoded date : UTC 2019-10-14 18:25:54
Tagged date : UTC 2019-10-14 18:25:54
Color range : Limited
Matrix coefficients : Identity

Audio
ID : 2
Format : AAC
Format/Info : Advanced Audio Codec
Format profile : LC
Codec ID : mp4a-40-2
Duration : 7 min 56 s
Bit rate mode : Variable
Bit rate : 103 kb/s
Channel(s) : 2 channels
Channel positions : Front: L R
Sampling rate : 44.1 kHz
Frame rate : 43.066 FPS (1024 SPF)
Compression mode : Lossy
Stream size : 5.84 MiB (9%)
Language : English
Encoded date : UTC 2019-10-14 18:25:54
Tagged date : UTC 2019-10-14 18:25:54

Screenshots


Trading Template  Course

Trading Template  Course

Trading Template  Course


Download link:

rapidgator_net:
https://rapidgator.net/file/2f1362793d4c1565cbb87de032f90cdc/92cg3.Trading.Template.Course.part01.rar.html
https://rapidgator.net/file/93d42164f6204ebb85f4db91c8c87c4f/92cg3.Trading.Template.Course.part02.rar.html
https://rapidgator.net/file/40e0a3b0799137f976c50fd8749be49a/92cg3.Trading.Template.Course.part03.rar.html
https://rapidgator.net/file/559c6f4c9d7d4958455a0a83be6eabff/92cg3.Trading.Template.Course.part04.rar.html
https://rapidgator.net/file/69774b37334f52df8079f37deb53ddd1/92cg3.Trading.Template.Course.part05.rar.html
https://rapidgator.net/file/a480518da842f6d6c483b3d84e7b3daf/92cg3.Trading.Template.Course.part06.rar.html
https://rapidgator.net/file/598402ea921d6830678056a3705d24d2/92cg3.Trading.Template.Course.part07.rar.html
https://rapidgator.net/file/ebf9882c52db2d4f8c0af612da00671f/92cg3.Trading.Template.Course.part08.rar.html
https://rapidgator.net/file/3478be72099f5aaccde58ce9da9cd094/92cg3.Trading.Template.Course.part09.rar.html
https://rapidgator.net/file/28026258e1db53ead06a262ee0ab0ae9/92cg3.Trading.Template.Course.part10.rar.html

nitroflare_com:
https://nitroflare.com/view/99E8B7DE3E93ECA/92cg3.Trading.Template.Course.part01.rar
https://nitroflare.com/view/CC6930CFB1E40C7/92cg3.Trading.Template.Course.part02.rar
https://nitroflare.com/view/313AF88F3355942/92cg3.Trading.Template.Course.part03.rar
https://nitroflare.com/view/140418EDF744ABD/92cg3.Trading.Template.Course.part04.rar
https://nitroflare.com/view/297E2DD67F8DD59/92cg3.Trading.Template.Course.part05.rar
https://nitroflare.com/view/A727E3FB5B4BB8B/92cg3.Trading.Template.Course.part06.rar
https://nitroflare.com/view/2296FDEAD06AA98/92cg3.Trading.Template.Course.part07.rar
https://nitroflare.com/view/C593362AB3D5FDA/92cg3.Trading.Template.Course.part08.rar
https://nitroflare.com/view/CAA750827F937F5/92cg3.Trading.Template.Course.part09.rar
https://nitroflare.com/view/67AEA3B2B2A1E4A/92cg3.Trading.Template.Course.part10.rar

uploadgig_com:
http://uploadgig.com/file/download/3486806541600099/92cg3.Trading.Template.Course.part01.rar
http://uploadgig.com/file/download/26f6551820DaBc0e/92cg3.Trading.Template.Course.part02.rar
http://uploadgig.com/file/download/810C2B7c67bc2f96/92cg3.Trading.Template.Course.part03.rar
http://uploadgig.com/file/download/e11e972645eEbDb5/92cg3.Trading.Template.Course.part04.rar
http://uploadgig.com/file/download/Ff9bd8b25300e61f/92cg3.Trading.Template.Course.part05.rar
http://uploadgig.com/file/download/3b8aacAADac0Eac9/92cg3.Trading.Template.Course.part06.rar
http://uploadgig.com/file/download/610bC60B73cefef0/92cg3.Trading.Template.Course.part07.rar
http://uploadgig.com/file/download/ffe913Cb06eb030a/92cg3.Trading.Template.Course.part08.rar
http://uploadgig.com/file/download/bdB5bcdfF2e20119/92cg3.Trading.Template.Course.part09.rar
http://uploadgig.com/file/download/6ee91e591C3936f3/92cg3.Trading.Template.Course.part10.rar


Links are Interchangeable - No Password - Single Extraction

P A S S W O R D    P R O T E C T E D ! 
PASSWORD WILL BE PUBLISHED HERE TOMORROW!
 PLEASE ADD PAGE TO YOUR FAVORITS

Free 300 GB with 10 GB High-Speed(No Password BACKUP)


Hide Your IP & Protect Your Privacy!
Get Your 15 Day Free Trial Now.

Tags: Trading, Template, Course

Trading Template Course Fast Download via Rapidshare Upload Filehosting Megaupload, Trading Template Course Torrents and Emule Download or anything related.
Information
Comment on the news site is possible only within (days) days from the date of publication.
«    November 2019    »
MonTueWedThuFriSatSun
 123
45678910
11121314151617
18192021222324
252627282930 
November 2019 (961)
October 2019 (2451)
September 2019 (2408)
August 2019 (1987)
July 2019 (2526)
June 2019 (2544)
eXTReMe Tracker