AvaxHome » Tutorials » Legacy Woodworking Machinery Vol.2 (1999)
Posted By : oaxino | Category: Tutorials
Legacy Woodworking Machinery Vol.2  (1999)

Legacy Woodworking Machinery Vol.2 (1999)
DVDRip | English | MKV | 640 x 480 | VP6 ~516 kbps | 30 fps
MP3 | 128 kbps | 48.0 KHz | 1 channel | 02:21:24 | 593 MB
Genre: eLearning / Woodworking

Fine Woodworking was launched in 1975 in response to the lack of quality information on the craft. With a circulation of 287,000, it is now the premiere source of how-to information for woodworkers of all skill levels that are seriously interested in woodworking techniques, tools, projects, finishing and design inspiration. Video from DVD, collection of the best articles in the magazine Fine Woodworking in 2008. Includes short videos on various topics of woodworking.

"Legacy Woodworking Machinery Vol.2 (1999)"

HI-SPEED DOWNLOAD
Free 300 GB with Full DSL-Broadband Speed!



Legacy Woodworking Machinery Vol.2  (1999)

Legacy Woodworking Machinery Vol.2 (1999)
DVDRip | English | MKV | 640 x 480 | VP6 ~516 kbps | 30 fps
MP3 | 128 kbps | 48.0 KHz | 1 channel | 02:21:24 | 593 MB
Genre: eLearning / Woodworking

Fine Woodworking was launched in 1975 in response to the lack of quality information on the craft. With a circulation of 287,000, it is now the premiere source of how-to information for woodworkers of all skill levels that are seriously interested in woodworking techniques, tools, projects, finishing and design inspiration. Video from DVD, collection of the best articles in the magazine Fine Woodworking in 2008. Includes short videos on various topics of woodworking.

General
Unique ID : 180579441206752076288274524217530781424 (0x87DA55D7464CA126AFA8319E8C2A0EF0)
Complete name : FWW_2008_0197_08_VIDEO.mkv
Format : Matroska
Format version : Version 2
File size : 38.8 MiB
Duration : 9 min 25 s
Overall bit rate : 575 kb/s
Encoded date : UTC 2012-11-12 18:47:35
Writing application : mkvmerge v3.3.0 ('Language') built on Mar 24 2010 14:59:24
Writing library : libebml v0.8.0 + libmatroska v0.9.0

Video
ID : 1
Format : VP6
Format profile : Heightened Sharpness
Codec ID : V_MS/VFW/FOURCC / VP6F
Codec ID/Hint : On2
Duration : 9 min 25 s
Bit rate : 516 kb/s
Width : 640 pixels
Height : 480 pixels
Display aspect ratio : 4:3
Frame rate mode : Constant
Frame rate : 30.000 FPS
Bits/(Pixel*Frame) : 0.056
Stream size : 34.8 MiB (90%)
Default : Yes
Forced : No

Audio
ID : 2
Format : MPEG Audio
Format version : Version 2
Format profile : Layer 3
Codec ID : A_MPEG/L3
Codec ID/Hint : MP3
Duration : 9 min 25 s
Bit rate mode : Constant
Bit rate : 48.0 kb/s
Channel(s) : 1 channel
Sampling rate : 22.05 kHz
Compression mode : Lossy
Stream size : 3.24 MiB (8%)
Default : Yes
Forced : No

Screenshots


Legacy Woodworking Machinery Vol.2  (1999)

Legacy Woodworking Machinery Vol.2  (1999)

Legacy Woodworking Machinery Vol.2  (1999)


Download link:

rapidgator_net:
https://rapidgator.net/file/549bd146f36a1751e51f636871d37a54/3af25.Legacy.Woodworking.Machinery.Vol.2.1999.part01.rar.html
https://rapidgator.net/file/e233d05ab6e7291f249e9905d6887644/3af25.Legacy.Woodworking.Machinery.Vol.2.1999.part02.rar.html
https://rapidgator.net/file/b11e9a54b0f8c2e6ec21d3431e95377f/3af25.Legacy.Woodworking.Machinery.Vol.2.1999.part03.rar.html
https://rapidgator.net/file/5d61c3f8d0deccce5350afe66386a5c6/3af25.Legacy.Woodworking.Machinery.Vol.2.1999.part04.rar.html
https://rapidgator.net/file/9266e1cb5f9cce84cec8a065622dc965/3af25.Legacy.Woodworking.Machinery.Vol.2.1999.part05.rar.html
https://rapidgator.net/file/c29f87499534a31801477d6e41ee87cb/3af25.Legacy.Woodworking.Machinery.Vol.2.1999.part06.rar.html
https://rapidgator.net/file/3f8fff2e06b829df730b5b85f7e8b2ce/3af25.Legacy.Woodworking.Machinery.Vol.2.1999.part07.rar.html
https://rapidgator.net/file/05d79190c310b9925d5115dac48356bf/3af25.Legacy.Woodworking.Machinery.Vol.2.1999.part08.rar.html
https://rapidgator.net/file/d3e24181e368d7bb19c3827de31dbbff/3af25.Legacy.Woodworking.Machinery.Vol.2.1999.part09.rar.html

nitroflare_com:
https://nitroflare.com/view/D4F9D9DA505CDC6/3af25.Legacy.Woodworking.Machinery.Vol.2.1999.part01.rar
https://nitroflare.com/view/53427A9DDCD2709/3af25.Legacy.Woodworking.Machinery.Vol.2.1999.part02.rar
https://nitroflare.com/view/623BB7B811FFEA9/3af25.Legacy.Woodworking.Machinery.Vol.2.1999.part03.rar
https://nitroflare.com/view/6321E705D615F22/3af25.Legacy.Woodworking.Machinery.Vol.2.1999.part04.rar
https://nitroflare.com/view/07B4678BD0AA612/3af25.Legacy.Woodworking.Machinery.Vol.2.1999.part05.rar
https://nitroflare.com/view/293404FD9375994/3af25.Legacy.Woodworking.Machinery.Vol.2.1999.part06.rar
https://nitroflare.com/view/A33816A6C1C17F7/3af25.Legacy.Woodworking.Machinery.Vol.2.1999.part07.rar
https://nitroflare.com/view/4885CDE8A42668D/3af25.Legacy.Woodworking.Machinery.Vol.2.1999.part08.rar
https://nitroflare.com/view/586520DC9E2083E/3af25.Legacy.Woodworking.Machinery.Vol.2.1999.part09.rar

uploadgig_com:
http://uploadgig.com/file/download/95693367323D98Ac/3af25.Legacy.Woodworking.Machinery.Vol.2.1999.part01.rar
http://uploadgig.com/file/download/107ff73826D3eE9d/3af25.Legacy.Woodworking.Machinery.Vol.2.1999.part02.rar
http://uploadgig.com/file/download/45baF73757edcb41/3af25.Legacy.Woodworking.Machinery.Vol.2.1999.part03.rar
http://uploadgig.com/file/download/f6567181fd978788/3af25.Legacy.Woodworking.Machinery.Vol.2.1999.part04.rar
http://uploadgig.com/file/download/363095ac54b08dBC/3af25.Legacy.Woodworking.Machinery.Vol.2.1999.part05.rar
http://uploadgig.com/file/download/0569Bd48b6Cc94ca/3af25.Legacy.Woodworking.Machinery.Vol.2.1999.part06.rar
http://uploadgig.com/file/download/E8D2c8e2Ac5820E3/3af25.Legacy.Woodworking.Machinery.Vol.2.1999.part07.rar
http://uploadgig.com/file/download/fFf22a72d37a0610/3af25.Legacy.Woodworking.Machinery.Vol.2.1999.part08.rar
http://uploadgig.com/file/download/0652cec1391d85cF/3af25.Legacy.Woodworking.Machinery.Vol.2.1999.part09.rar


Links are Interchangeable - No Password - Single Extraction

P A S S W O R D    P R O T E C T E D ! 
PASSWORD WILL BE PUBLISHED HERE TOMORROW!
 PLEASE ADD PAGE TO YOUR FAVORITS

Free 300 GB with 10 GB High-Speed(No Password BACKUP)


Hide Your IP & Protect Your Privacy!
Get Your 15 Day Free Trial Now.

Tags: Legacy, Woodworking, Machinery

Legacy Woodworking Machinery Vol.2 (1999) Fast Download via Rapidshare Upload Filehosting Megaupload, Legacy Woodworking Machinery Vol.2 (1999) Torrents and Emule Download or anything related.
Information
Comment on the news site is possible only within (days) days from the date of publication.
«    November 2019    »
MonTueWedThuFriSatSun
 123
45678910
11121314151617
18192021222324
252627282930 
November 2019 (780)
October 2019 (2451)
September 2019 (2408)
August 2019 (1987)
July 2019 (2526)
June 2019 (2544)
eXTReMe Tracker