AvaxHome » Tutorials » How-To Guide to Ceramic Tile with Dean Johnson
Posted By : missyou | Category: Tutorials
How-To Guide to Ceramic Tile with Dean Johnson

How-To Guide to Ceramic Tile with Dean Johnson
DVDRip | English | AVI | 512 x 384 | XviD ~810 kbps | 29.97 fps
MP3 | 60.2 kbps | 48.0 KHz | 1 channel | 01:46:00 | 698 MB
Genre: elearning / Construction, repair and design

Tiling is a big job, but there is no need to be intimidated. Here's a good DVD for the novice tiler. If you are thinking about a tiling job in your bath or kitchen, this DVD is well worth the money. Step by step instructions in preparation and layout are covered as well as grouting and sealing and care. Good luck with your home improvement projects!

"How-To Guide to Ceramic Tile with Dean Johnson"

HI-SPEED DOWNLOAD
Free 300 GB with Full DSL-Broadband Speed!



How-To Guide to Ceramic Tile with Dean Johnson

How-To Guide to Ceramic Tile with Dean Johnson
DVDRip | English | AVI | 512 x 384 | XviD ~810 kbps | 29.97 fps
MP3 | 60.2 kbps | 48.0 KHz | 1 channel | 01:46:00 | 698 MB
Genre: elearning / Construction, repair and design

Tiling is a big job, but there is no need to be intimidated. Here's a good DVD for the novice tiler. If you are thinking about a tiling job in your bath or kitchen, this DVD is well worth the money. Step by step instructions in preparation and layout are covered as well as grouting and sealing and care. Good luck with your home improvement projects!

Good instruction in terms of basic tile installation. Nothing too fancy but that's the nature of Dean Johnson. Good fundamental instruction is what this provides. If you're doing something complicated you may need to supplement this DVD with some additional material.

General
Complete name : Hometime How-To Guide To Ceramic Tile DVDRip.avi
Format : AVI
Format/Info : Audio Video Interleave
Format settings : rec
File size : 698 MiB
Duration : 1h 46mn
Overall bit rate : 915 Kbps
Writing application : AVI-Mux GUI 1.17, Jul 1 2005 11:32:32
Video #0
ID : 0
Format : MPEG-4 Visual
Format profile : [email protected]
Format settings, BVOP : Yes
Format settings, QPel : No
Format settings, GMC : No warppoints
Format settings, Matrix : Default (H.263)
Muxing mode : Packed bitstream
Codec ID : XVID
Codec ID/Hint : XviD
Duration : 1h 46mn
Bit rate : 810 Kbps
Width : 512 pixels
Height : 384 pixels
Display aspect ratio : 4:3
Frame rate : 29.970 fps
Resolution : 24 bits
Colorimetry : 4:2:0
Scan type : Progressive
Bits/(Pixel*Frame) : 0.137
Stream size : 618 MiB (88%)
Writing library : XviD 1.1.0 Beta2 (UTC 2005-04-04)
Audio #1
ID : 1
Format : MPEG Audio
Format version : Version 1
Format profile : Layer 3
Codec ID : 55
Codec ID/Hint : MP3
Duration : 1h 46mn
Bit rate mode : Variable
Bit rate : 60.2 Kbps
Minimum bit rate : 32.0 Kbps
Channel(s) : 1 channel
Sampling rate : 48.0 KHz
Resolution : 16 bits
Stream size : 45.9 MiB (7%)
Alignment : Aligned on interleaves
Title : 1.wav
Writing library : LAME3.96r
Encoding settings : -m m -V 6 -q 3 -lowpass 16 -vbr-old -b 32

ScreenShots


How-To Guide to Ceramic Tile with Dean Johnson

How-To Guide to Ceramic Tile with Dean Johnson

How-To Guide to Ceramic Tile with Dean Johnson


Download link:

uploadgig_com:
https://uploadgig.com/file/download/76f77c590523bfeb/1xexd.HowTo.Guide.to.Ceramic.Tile.with.Dean.Johnson.part1.rar
https://uploadgig.com/file/download/469ef2705917D4e6/1xexd.HowTo.Guide.to.Ceramic.Tile.with.Dean.Johnson.part2.rar
https://uploadgig.com/file/download/64542a26eAF7e201/1xexd.HowTo.Guide.to.Ceramic.Tile.with.Dean.Johnson.part3.rar
https://uploadgig.com/file/download/504ef583b3B0aEcE/1xexd.HowTo.Guide.to.Ceramic.Tile.with.Dean.Johnson.part4.rar
https://uploadgig.com/file/download/f6ecb0217650b1B5/1xexd.HowTo.Guide.to.Ceramic.Tile.with.Dean.Johnson.part5.rar
https://uploadgig.com/file/download/5799cC8a02ba3814/1xexd.HowTo.Guide.to.Ceramic.Tile.with.Dean.Johnson.part6.rar
https://uploadgig.com/file/download/2985468fa96C3655/1xexd.HowTo.Guide.to.Ceramic.Tile.with.Dean.Johnson.part7.rar

rapidgator_net:
https://rapidgator.net/file/6ec65097c1d7c89c5030ab719fadc01a/1xexd.HowTo.Guide.to.Ceramic.Tile.with.Dean.Johnson.part1.rar.html
https://rapidgator.net/file/5c2b33e770dab88e503132147fb3c86d/1xexd.HowTo.Guide.to.Ceramic.Tile.with.Dean.Johnson.part2.rar.html
https://rapidgator.net/file/1bb3d450999efb45e8bcfd619bf38748/1xexd.HowTo.Guide.to.Ceramic.Tile.with.Dean.Johnson.part3.rar.html
https://rapidgator.net/file/d17a6b557337fc6a6ad5c3fed3eb5e76/1xexd.HowTo.Guide.to.Ceramic.Tile.with.Dean.Johnson.part4.rar.html
https://rapidgator.net/file/d9fb3239fe5fad30bc00578cef3d7300/1xexd.HowTo.Guide.to.Ceramic.Tile.with.Dean.Johnson.part5.rar.html
https://rapidgator.net/file/7c77c921fdca049b6ebb912b88726558/1xexd.HowTo.Guide.to.Ceramic.Tile.with.Dean.Johnson.part6.rar.html
https://rapidgator.net/file/8e1ba7c8dcf1a813c9d8e466f6c096e0/1xexd.HowTo.Guide.to.Ceramic.Tile.with.Dean.Johnson.part7.rar.html

nitroflare_com:
http://nitroflare.com/view/5834D1DA513A160/1xexd.HowTo.Guide.to.Ceramic.Tile.with.Dean.Johnson.part1.rar
http://nitroflare.com/view/CC946BE650E46C8/1xexd.HowTo.Guide.to.Ceramic.Tile.with.Dean.Johnson.part2.rar
http://nitroflare.com/view/DB4F214979AF69D/1xexd.HowTo.Guide.to.Ceramic.Tile.with.Dean.Johnson.part3.rar
http://nitroflare.com/view/F1F0096DEE39A71/1xexd.HowTo.Guide.to.Ceramic.Tile.with.Dean.Johnson.part4.rar
http://nitroflare.com/view/3944944E07D0790/1xexd.HowTo.Guide.to.Ceramic.Tile.with.Dean.Johnson.part5.rar
http://nitroflare.com/view/AE8F9567623D5A6/1xexd.HowTo.Guide.to.Ceramic.Tile.with.Dean.Johnson.part6.rar
http://nitroflare.com/view/D4A81C6E3400BBA/1xexd.HowTo.Guide.to.Ceramic.Tile.with.Dean.Johnson.part7.rar


Links are Interchangeable - No Password - Single Extraction

P A S S W O R D    P R O T E C T E D ! 
PASSWORD WILL BE PUBLISHED HERE TOMORROW!
 PLEASE ADD PAGE TO YOUR FAVORITS

Free 300 GB with 10 GB High-Speed(No Password BACKUP)


Hide Your IP & Protect Your Privacy!
Get Your 15 Day Free Trial Now.

Tags: Guide, Ceramic, Tile, with, Dean, Johnson

How-To Guide to Ceramic Tile with Dean Johnson Fast Download via Rapidshare Upload Filehosting Megaupload, How-To Guide to Ceramic Tile with Dean Johnson Torrents and Emule Download or anything related.
Information
Comment on the news site is possible only within (days) days from the date of publication.
«    June 2019    »
MonTueWedThuFriSatSun
 12
3456789
10111213141516
17181920212223
24252627282930
June 2019 (2280)
May 2019 (2905)
April 2019 (2567)
March 2019 (2988)
February 2019 (2254)
January 2019 (2444)
eXTReMe Tracker