AvaxHome » Tutorials » Cymatic Soundscapes (Part IV in a IV-part Series)
Posted By : mitsumi | Category: Tutorials
Cymatic Soundscapes (Part IV in a IV-part Series)

Cymatic Soundscapes (Part IV in a IV-part Series)
A visually exciting and fascinating portrayal of the interplay of vibration and form, energy and matter

VHSRip | English | AVI | 704 x 576 | AVC ~2698 kbps | 25 fps
MP3 | 128 Kbps | 48.0 KHz | 2 channels | 00:28:30 | 569 MB
Genre: eLearning Video / Healthcare, Science, Self Improvement

CYMATICS, the study of wave phenomena, was pioneered by the Swiss physician , artist and natural scientist, Dr. Hans Jenny (1904 - 1972).

"Cymatic Soundscapes (Part IV in a IV-part Series)"

HI-SPEED DOWNLOAD
Free 300 GB with Full DSL-Broadband Speed!



CYMATICS, the study of wave phenomena, was pioneered by the Swiss physician , artist and natural scientist, Dr. Hans Jenny (1904 - 1972).[/quote]Inspired by Rudolf Steiner, Dr. Jenny's penetrating observations of distinct types of patterns in nature led to these dramatic experiments animating inert substances with audible sound.
This film, made by Dr. Hans Jenny around the same time as Part III of this series, focuses on the polarities of seemingly static structures which are actually dynamic flowing forms. A stunning array of images evolves before your eyes, as audible sound excites inert piles of lycopodium dust and kaolin paste into processes which mimic atomic, geologic, biological, solar and even galactic shapes and movements.
These are actual physical phenomena. No computer-generated images are used.
"This documentary is truly awe-inspiring, detailing the inherent responsiveness of matter to its underlying vibrational tone. It is both visually fascinating, and immediately comprehensible to anyone with a n interest in the natural sciences." - Jeff Volk, Series Producer

General
Complete name : Cymatics - part 4 - Soundscapes - Experiments in animation with sound & vibration.avi
Format : AVI
Format/Info : Audio Video Interleave
File size : 570 MiB
Duration : 28 min 3 s
Overall bit rate : 2 839 kb/s

Video
ID : 0
Format : MPEG-4 Visual
Format profile : [email protected]
Format settings, BVOP : No
Format settings, QPel : No
Format settings, GMC : No warppoints
Format settings, Matrix : Default (H.263)
Codec ID : XVID
Codec ID/Hint : XviD
Duration : 28 min 3 s
Source duration : 28 min 3 s
Bit rate : 2 698 kb/s
Width : 704 pixels
Height : 576 pixels
Display aspect ratio : 16:9
Frame rate : 25.000 FPS
Standard : PAL
Color space : YUV
Chroma subsampling : 4:2:0
Bit depth : 8 bits
Scan type : Progressive
Compression mode : Lossy
Bits/(Pixel*Frame) : 0.266
Stream size : 542 MiB (95%)
Writing library : FFmpeg0.4.9-pre1b4747

Audio
ID : 1
Format : MPEG Audio
Format version : Version 1
Format profile : Layer 3
Format settings : Joint stereo / MS Stereo
Codec ID : 55
Codec ID/Hint : MP3
Duration : 28 min 3 s
Source duration : 28 min 3 s
Bit rate mode : Constant
Bit rate : 128 kb/s
Channel(s) : 2 channels
Sampling rate : 48.0 kHz
Compression mode : Lossy
Stream size : 25.7 MiB (5%)
Alignment : Aligned on interleaves
Interleave, duration : 24 ms (0.60 video frame)
Writing library : LAME3.96.1

Screenshots


Cymatic Soundscapes (Part IV in a IV-part Series)

Cymatic Soundscapes (Part IV in a IV-part Series)

Cymatic Soundscapes (Part IV in a IV-part Series)


Download link:

[quote]
uploadgig_com:
https://uploadgig.com/file/download/f7D7a0e8dda333Fe/ztlvj.Cymatic.Soundscapes.Part.IV.in.a.IVpart.Series.avi

rapidgator_net:
https://rapidgator.net/file/68315e678a59fe081fb39b851919f92b/ztlvj.Cymatic.Soundscapes.Part.IV.in.a.IVpart.Series.avi.html

nitroflare_com:
http://nitroflare.com/view/68993972D6FFE94/ztlvj.Cymatic.Soundscapes.Part.IV.in.a.IVpart.Series.avi
[/quote]

Links are Interchangeable - No Password - Single Extraction

P A S S W O R D    P R O T E C T E D ! 
PASSWORD WILL BE PUBLISHED HERE TOMORROW!
 PLEASE ADD PAGE TO YOUR FAVORITS

Free 300 GB with 10 GB High-Speed(No Password BACKUP)


Hide Your IP & Protect Your Privacy!
Get Your 15 Day Free Trial Now.

Tags: Cymatic, Soundscapes, Part, part, Series

Cymatic Soundscapes (Part IV in a IV-part Series) Fast Download via Rapidshare Upload Filehosting Megaupload, Cymatic Soundscapes (Part IV in a IV-part Series) Torrents and Emule Download or anything related.
«    May 2019    »
MonTueWedThuFriSatSun
 12345
6789101112
13141516171819
20212223242526
2728293031 
May 2019 (2063)
April 2019 (2567)
March 2019 (2988)
February 2019 (2254)
January 2019 (2444)
December 2018 (1337)
eXTReMe Tracker