AvaxHome » Tutorials » Anthony Morrison - Fan Page Domination [2016]
Posted By : mitsumi | Category: Tutorials
Anthony Morrison - Fan Page Domination [2016]

Anthony Morrison - Fan Page Domination
WEBRip | English | MP4 + PDF Guides + work files | 2560 x 1252 | AVC ~1199 kbps | 30 fps
AAC | 247 Kbps | 44.1 KHz | 2 channels | ~9 hours | 5.09 GB
Genre: eLearning Video / Business, Net: Advertising, Web Traffic

Fan Page Domination program is all about getting traffic in Facebook Fan Page, You learn the right Internet Marketing Tools to used to make money and gives some advice what other Internet Marketing Tools to be used. The course have the case study and live workshop.

"Anthony Morrison - Fan Page Domination [2016]"

HI-SPEED DOWNLOAD
Free 300 GB with Full DSL-Broadband Speed!



Anthony Morrison - Fan Page Domination [2016]

Anthony Morrison - Fan Page Domination
WEBRip | English | MP4 + PDF Guides + work files | 2560 x 1252 | AVC ~1199 kbps | 30 fps
AAC | 247 Kbps | 44.1 KHz | 2 channels | ~9 hours | 5.09 GB
Genre: eLearning Video / Business, Net: Advertising, Web Traffic

Fan Page Domination program is all about getting traffic in Facebook Fan Page, You learn the right Internet Marketing Tools to used to make money and gives some advice what other Internet Marketing Tools to be used. The course have the case study and live workshop.

Welcome to Fan Page Domination - Let's Get Started
I am super excited to have you on board our Fan Page Domination program , I disovered this technique kinda by "acci-dent" and it's gone on to be one of the most succesful and duplicatable techniques I have ever taught to my student.

Please take good notes and work through each module SLOWLY , Speed is NOT they key to success ok? I've gone into come-plete detail showing you ecxatly what you need to do to be successful using this strategy

Again I want to say THANK YOU for joining me and becoming a Fan Page Domination Student....

Now let's get started. Here is what you get inside the courses (main folders):

01. Phase 1
02. Phase 2
03. Phase 3
04. Case Study
05. Suggested Tools
06. Student Q&A
07. Live Workshop
08. Success Connection
09. Bonus Training
10. EmailEDU
11. Fan Explosion Software

   MediaInfo:            GeneralComplete name                            : Overview - Fan Page Domination.mp4Format                                   : MPEG-4Format profile                           : Base Media / Version 2Codec ID                                 : mp42File size                                : 646 MiBDuration                                 : 1h 2mnOverall bit rate mode                    : VariableOverall bit rate                         : 1 455 KbpsMovie name                               : Overview - Fan Page DominationPerformer                                :Encoded date                             : UTC 2016-06-05 23:10:29Tagged date                              : UTC 2016-07-27 08:01:37hdvd                                     : 0stik                                     : 9cnID                                     : 0VideoID                                       : 1Format                                   : AVCFormat/Info                              : Advanced Video CodecFormat profile                           : [email protected] settings, CABAC                   : YesFormat settings, ReFrames                : 5 framesCodec ID                                 : avc1Codec ID/Info                            : Advanced Video CodingDuration                                 : 1h 2mnBit rate mode                            : VariableBit rate                                 : 1 199 KbpsWidth                                    : 2 560 pixelsHeight                                   : 1 252 pixelsDisplay aspect ratio                     : 2.045Frame rate mode                          : ConstantFrame rate                               : 30.000 fpsColor space                              : YUVChroma subsampling                       : 4:2:0Bit depth                                : 8 bitsScan type                                : ProgressiveBits/(Pixel*Frame)                       : 0.012Stream size                              : 532 MiB (82%)Encoded date                             : UTC 2016-06-05 23:10:29Tagged date                              : UTC 2016-06-05 23:51:37Color primaries                          : BT.709-2, SMPTE 274M, SMPTE 296MTransfer characteristics                 : BT.709-2, SMPTE 170M, SMPTE 274M, SMPTE 293M, SMPTE 296MMatrix coefficients                      : BT.709-2, SMPTE 274M, SMPTE 296MAudioID                                       : 2Format                                   : AACFormat/Info                              : Advanced Audio CodecFormat profile                           : LCCodec ID                                                                                                                                                                                                                                                                      : 40Duration                                 : 1h 2mnBit rate mode                            : VariableBit rate                                 : 247 KbpsMaximum bit rate                         : 367 KbpsChannel(s)                               : 2 channelsChannel positions                        : Front: L RSampling rate                            : 44.1 KHzCompression mode                         : LossyDelay relative to video                  : -200msStream size                              : 110 MiB (17%)Encoded date                             : UTC 2016-06-05 23:10:29Tagged date                              : UTC 2016-06-05 23:11:22TextID                                       : 3Format                                   : Apple textCodec ID                                 : textDuration                                 : 1h 2mnBit rate                                 : 0 bpsDelay relative to video                  : -200msStream size                              : 23.0 Bytes (0%)Encoded date                             : UTC 2016-07-27 08:01:37Tagged date                              : UTC 2016-07-27 08:01:37 


Screenshots

Anthony Morrison - Fan Page Domination [2016]


Anthony Morrison - Fan Page Domination [2016]


Anthony Morrison - Fan Page Domination [2016]


Anthony Morrison - Fan Page Domination [2016]


Download link:



Links are Interchangeable - No Password - Single Extraction

P A S S W O R D    P R O T E C T E D ! 
PASSWORD WILL BE PUBLISHED HERE TOMORROW!
 PLEASE ADD PAGE TO YOUR FAVORITS

Free 300 GB with 10 GB High-Speed(No Password BACKUP)


Hide Your IP & Protect Your Privacy!
Get Your 15 Day Free Trial Now.

Tags: Anthony, Morrison, Page, Domination

Anthony Morrison - Fan Page Domination [2016] Fast Download via Rapidshare Upload Filehosting Megaupload, Anthony Morrison - Fan Page Domination [2016] Torrents and Emule Download or anything related.
Information
Comment on the news site is possible only within (days) days from the date of publication.
«    November 2019    »
MonTueWedThuFriSatSun
 123
45678910
11121314151617
18192021222324
252627282930 
November 2019 (1124)
October 2019 (2451)
September 2019 (2408)
August 2019 (1987)
July 2019 (2526)
June 2019 (2544)
eXTReMe Tracker