AvaxHome » Movies » Iron Sky (2012) DvDRip XviD Ac3 Feel-Free
Posted By : golemsonbi | Category: Movies
http://i.imm.io/r5HE.jpeg
Iron Sky (2012) DvDRip XviD Ac3 Feel-Free | 1.00 GB

"Iron Sky (2012) DvDRip XviD Ac3 Feel-Free"

HI-SPEED DOWNLOAD
Free 300 GB with Full DSL-Broadband Speed!



http://i.imm.io/r5HE.jpeg
Iron Sky (2012) DvDRip XviD Ac3 Feel-Free | 1.00 GB

Genre:Action | Comedy | Sci-Fi
Language:English
IMDb:http://www.imdb.com/title/tt1034314/
SourceVD Thanks!
Subtitles:English
Encoder:Tony

Format : AVI
Format/Info : Audio Video Interleave
File size : 1 023 MiB
Duration : 1h 28mn
Overall bit rate : 1 610 Kbps

Video
ID : 0
Format : MPEG-4 Visual
Format profile : Advanced [email protected]
Format settings, BVOP : 1
Format settings, QPel : No
Format settings, GMC : No warppoints
Format settings, Matrix : Default (H.263)
Codec ID : XVID
Codec ID/Hint : XviD
Duration : 1h 28mn
Bit rate : 1 217 Kbps
Width : 640 pixels
Height : 272 pixels
Display aspect ratio : 2.35:1
Frame rate : 25.000 fps
Color space : YUV
Chroma subsampling : 4:2:0
Bit depth : 8 bits
Scan type : Progressive
Compression mode : Lossy
Bits/(Pixel*Frame) : 0.280
Stream size : 773 MiB (76%)
Writing library : XviD 1.2.1 (UTC 2008-12-04)

Audio
ID : 1
Format : AC-3
Format/Info : Audio Coding 3
Mode extension : CM (complete main)
Format settings, Endianness : Big
Codec ID : 2000
Duration : 1h 28mn
Bit rate mode : Constant
Bit rate : 384 Kbps
Channel(s) : 6 channels
Channel positions : Front: L C R, Side: L R, LFE
Sampling rate : 48.0 KHz
Bit depth : 16 bits
Compression mode : Lossy
Stream size : 244 MiB (24%)
Alignment : Aligned on interleaves
Interleave, duration : 40 ms (1.00 video frame)
Interleave, preload duration : 512 ms


Plot:
The Nazis set up a secret base on the moon in 1945 where they hide out and plan to return to power in 2018


Download link:
(Buy premium account for maximum speed and resumming ability)



Links are Interchangeable - No Password - Single Extraction

P A S S W O R D    P R O T E C T E D ! 
PASSWORD WILL BE PUBLISHED HERE TOMORROW!
 PLEASE ADD PAGE TO YOUR FAVORITS

Free 300 GB with 10 GB High-Speed(No Password BACKUP)


Hide Your IP & Protect Your Privacy!
Get Your 15 Day Free Trial Now.
Iron Sky (2012) DvDRip XviD Ac3 Feel-Free Fast Download via Rapidshare Upload Filehosting Megaupload, Iron Sky (2012) DvDRip XviD Ac3 Feel-Free Torrents and Emule Download or anything related.
Posted By:sergio82 Date: 1 June 2012 05:02
Maybe the man with the iron fists 2012 unrated brrip xvid ac3 feel free
Posted By:carlosbaez23 Date: 1 June 2012 06:21
i need elf man 2012 dvdrip xvid ac3 feel free
Posted By:r0ckgunner146 Date: 1 June 2012 08:16
I think the possession 2012 dvdrip xvid ac3 feel free just download here
Posted By:TorsTauptes77 Date: 1 June 2012 11:35
hello every,the frozen 2012 dvdrip xvid ac3 feel free can free download
Posted By:najafi119 Date: 1 June 2012 14:04
what about of loosies 2012 dvdrip xvid ac3 feel free can free download
Information
Comment on the news site is possible only within (days) days from the date of publication.
«    November 2019    »
MonTueWedThuFriSatSun
 123
45678910
11121314151617
18192021222324
252627282930 
November 2019 (861)
October 2019 (2451)
September 2019 (2408)
August 2019 (1987)
July 2019 (2526)
June 2019 (2544)
eXTReMe Tracker